Скачать через торрент Человек, который изобрёл Рождество The Man Who Invented Christmas Фильм бесплатно в хорошем качестве torrent

Скачивайте на UnionPeer.org фильмы через торрент без регистрации. Новинки кино в хорошем качестве через торрент. На UnionPeer.org можно скачать через торрент фильмы 2014 и 2015 годов. Самые новые фильмы.

Скачать торрент Человек, который изобрёл Рождество The Man Who Invented Christmas бесплатно через .torrent фильм мультфильм сериал

Статистика раздачи
Размер:  1.93 GB   |    Зарегистрирован:  8 дней   |    .torrent скачан:  63 раза   |   
Раздают:  1  
   
загрузка...
 
Автор Сообщение

Galfimbul

avatar Galfimbul


Человек, который изобрёл Рождество / The Man Who Invented Christmas
«How Charles Dickens wrote 'A Christmas Carol' and created a tradition»


Год выпуска: 2017
Страна: Ирландия, Канада
Производство: Mazur / Kaplan Company, Parallel Films, Rhombus Media, The Mob Film Company
Жанр: Драма, комедия, биография
Режиссёр: Бхарат Наллури
В ролях: Дэн Стивенс, Кристофер Пламмер, Мириам Марголис, Джонатан Прайс, Саймон Кэллоу, Козимо Фуско, Дональд Самптер, Иэн МакНис, Билл Патерсон, Аннет Бэдленд
Перевод: Профессиональный многоголосый | [HDRezka Studio]
Субтитры: Русские (полные), Английские (полные)
Реклама: Отсутствует

Описание: В результате ошеломительного успеха романа "Оливер Твист" молодой британский писатель Чарльз Диккенс отправляется в турне по Америке, после чего он возвращается в Лондон, где на основе полученных впечатлений пишет несколько новых произведений, которые оказываются коммерческим провалом для издательств. Это подрывает авторитет молодого писателя, который начинает испытывать творческий кризис и постепенно скатывается в долговую яму. Неожиданно в голову ему приходит идея нового произведения, действие которого будет разворачиваться в канун непопулярного в то время Рождества...


Качество: BDRip-AVC | BDRemux | The.Man.Who.Invented.Christmas.2017.1080p.BluRay.REMUX.AVC.DTS-HD.MA.5.1-FGT
Продолжительность: 01:44:29

Формат: MKV
Видео кодек: MPEG-4 AVC
Аудио кодек: AC3
Видео: 1024x428 (2.40:1), 23,976 fps, x264 ~1 811 kbps avg, 0.172 bit/pixel
Аудио #1: 48 kHz, AC3 Dolby Digital, 2 (L,R) ch, ~384.00 kbps avg | RUS (HDRezka Studio)
Аудио #2: 48 kHz, AC3 Dolby Digital, 3/2 (L,C,R,l,r) + LFE ch, ~448.00 kbps avg | ENG
Дата премьеры (мир): 10 ноября 2017
Дата премьеры (РФ):
Цифровой релиз:
Общее
Уникальный идентификатор : 203278016368659774121714054807159586628 (0x98EDEC0010D860D9C03350AC83EC3F44)
Полное имя : F:OlLanDGroupThe.Man.Who.Invented.Christmas.2017.BDRip(AVC).OlLanDGroup.mkv
Формат : Matroska
Версия формата : Version 4 / Version 2
Размер файла : 1,93 Гбайт
Продолжительность : 1 ч. 44 м.
Общий поток : 2640 Кбит/сек
Название фильма : The.Man.Who.Invented.Christmas.2017 #TorpedoUK#
Дата кодирования : UTC 2018-12-03 15:23:01
Программа кодирования : mkvmerge v25.0.0 ('Prog Noir') 64-bit
Библиотека кодирования : libebml v1.3.6 + libmatroska v1.4.9
Обложка : Yes
Attachments : cover.jpg

Видео
Идентификатор : 1
Формат : AVC
Формат/Информация : Advanced Video Codec
Профиль формата : High@L4.1
Параметр CABAC формата : Да
Параметр ReFrames формата : 10 кадров
Идентификатор кодека : V_MPEG4/ISO/AVC
Продолжительность : 1 ч. 44 м.
Битрейт : 1811 Кбит/сек
Ширина : 1024 пикселя
Высота : 428 пикселей
Соотношение сторон : 2,40:1
Режим частоты кадров : Постоянный
Частота кадров : 23,976 (24000/1001) кадра/сек
Цветовое пространство : YUV
Субдискретизация насыщенности : 4:2:0
Битовая глубина : 8 бит
Тип развёртки : Прогрессивная
Бит/(Пиксели*Кадры) : 0.172
Размер потока : 1,32 Гбайт (68%)
Библиотека кодирования : x264 core 146 r2538 121396c
Настройки программы : cabac=1 / ref=10 / deblock=1:-3:-3 / analyse=0x3:0x113 / me=umh / subme=11 / psy=1 / psy_rd=1.00:0.03 / mixed_ref=1 / me_range=48 / chroma_me=1 / trellis=2 / 8x8dct=1 / cqm=0 / deadzone=21,11 / fast_pskip=1 / chroma_qp_offset=-3 / threads=6 / lookahead_threads=1 / sliced_threads=0 / nr=0 / decimate=1 / interlaced=0 / bluray_compat=0 / constrained_intra=0 / bframes=11 / b_pyramid=2 / b_adapt=2 / b_bias=0 / direct=3 / weightb=1 / open_gop=0 / weightp=2 / keyint=240 / keyint_min=23 / scenecut=40 / intra_refresh=0 / rc_lookahead=40 / rc=2pass / mbtree=0 / bitrate=1811 / ratetol=1.0 / qcomp=0.60 / qpmin=0 / qpmax=69 / qpstep=4 / cplxblur=20.0 / qblur=0.5 / vbv_maxrate=50000 / vbv_bufsize=62500 / nal_hrd=none / filler=0 / ip_ratio=1.40 / pb_ratio=1.30 / aq=1:1.00
Язык : English
Default : Да
Forced : Нет

Аудио #1
Идентификатор : 2
Формат : AC-3
Формат/Информация : Audio Coding 3
Расширение режима : CM (complete main)
Параметр Endianness формата : Big
Идентификатор кодека : A_AC3
Продолжительность : 1 ч. 44 м.
Вид битрейта : Постоянный
Битрейт : 384 Кбит/сек
Каналы : 2 канала
Расположение каналов : Front: L R
Частота : 48,0 КГц
Частота кадров : 31,250 кадров/сек (1536 spf)
Битовая глубина : 16 бит
Метод сжатия : С потерями
Размер потока : 287 Мбайт (15%)
Заголовок : MVO [HDrezka Studio]
Язык : Russian
Default : Да
Forced : Нет

Аудио #2
Идентификатор : 3
Формат : AC-3
Формат/Информация : Audio Coding 3
Расширение режима : CM (complete main)
Параметр Endianness формата : Big
Идентификатор кодека : A_AC3
Продолжительность : 1 ч. 44 м.
Вид битрейта : Постоянный
Битрейт : 448 Кбит/сек
Каналы : 6 каналов
Расположение каналов : Front: L C R, Side: L R, LFE
Частота : 48,0 КГц
Частота кадров : 31,250 кадров/сек (1536 spf)
Битовая глубина : 16 бит
Метод сжатия : С потерями
Размер потока : 335 Мбайт (17%)
Заголовок : [Original]
Язык : English
Default : Нет
Forced : Нет

Текст #1
Идентификатор : 4
Формат : UTF-8
Идентификатор кодека : S_TEXT/UTF8
Идентификатор кодека/Информация : UTF-8 Plain Text
Продолжительность : 1 ч. 37 м.
Битрейт : 102 бит/сек
Count of elements : 1389
Размер потока : 72,7 Кбайт (0%)
Заголовок : Full
Язык : Russian
Default : Нет
Forced : Нет

Текст #2
Идентификатор : 5
Формат : UTF-8
Идентификатор кодека : S_TEXT/UTF8
Идентификатор кодека/Информация : UTF-8 Plain Text
Продолжительность : 1 ч. 35 м.
Битрейт : 63 бит/сек
Count of elements : 1664
Размер потока : 44,5 Кбайт (0%)
Заголовок : Full
Язык : English
Default : Нет
Forced : Нет

Меню
00:00:00.000 : en:Chapter 1
00:05:06.014 : en:Chapter 2
00:12:43.179 : en:Chapter 3
00:17:12.740 : en:Chapter 4
00:22:02.655 : en:Chapter 5
00:25:10.843 : en:Chapter 6
00:29:02.699 : en:Chapter 7
00:33:22.542 : en:Chapter 8
00:37:53.897 : en:Chapter 9
00:41:50.258 : en:Chapter 10
00:47:02.111 : en:Chapter 11
00:51:23.205 : en:Chapter 12
00:57:15.515 : en:Chapter 13
01:05:34.764 : en:Chapter 14
01:09:44.931 : en:Chapter 15
01:15:32.153 : en:Chapter 16
01:19:46.365 : en:Chapter 17
01:27:44.009 : en:Chapter 18
01:32:09.858 : en:Chapter 19
01:37:57.872 : en:Chapter 20
Источник http://BlaTor.org

Трекер:  [ 04-Дек-2018 22:10 ]

  

Скачать .torrent

Размер .torrent файла 19 KB


Размер: 1.93 GB
Хэш (hash) релиза: a800dbf17458fb1c351b6c899ebc0db83652ad5b
Подписка на обновления:

Еще никто не оставлял запись к записи скачать торрент Человек, который изобрёл Рождество The Man Who Invented Christmas . Будь первым!

!Обратная связь