Скачать через торрент Веном Venom Фильм бесплатно в хорошем качестве torrent

Скачивайте на UnionPeer.org фильмы через торрент без регистрации. Новинки кино в хорошем качестве через торрент. На UnionPeer.org можно скачать через торрент фильмы 2014 и 2015 годов. Самые новые фильмы.

Скачать торрент Веном Venom бесплатно через .torrent фильм мультфильм сериал

Статистика раздачи
Размер:  1.63 GB   |    Зарегистрирован:  8 дней   |    .torrent скачан:  258 раз   |   
Раздают:  1  
   
загрузка...
 
Автор Сообщение

Galfimbul

avatar Galfimbul


Веном /Venom

Год выхода: 2018
Жанр: ужасы, фантастика, боевик, триллер

Режиссер: Рубен Фляйшер

В ролях: Том Харди, Мишель Уильямс, Марчелла Браджио, Вуди Харрельсон, Дженни Слейт, Риз Ахмед, Мак Брандт, Рон Сепас Джонс, Мишель Ли, Мелора Уолтерс

О фильме:
Что если в один прекрасный день в тебя вселяется существо-симбиот, которое наделяет тебя сверхчеловеческими способностями? Вот только Веном — симбиот совсем недобрый, и договориться с ним невозможно. Хотя нужно ли договариваться?.. Ведь в какой-то момент ты понимаешь, что быть плохим вовсе не так уж и плохо. Так даже веселее. В мире и так слишком много супергероев! Мы — Веном!



Страна: США
Продолжительность: 01:47:10
Перевод: Профессиональный (дублированный) | Звук с TS

Файл
Кодек: H.265
Качество: WEBRip-HEVC 1080p
Видео: HEVC, 1920x800 (2.40:1), 23.976 fps, 1 600 kb/s
Аудио #1: AC-3, 48.0 kHz, 2 ch, 192 kb/s | RUS [DUB (TS)]
Аудио #2: AC-3, 48.0 kHz, 2 ch, 192 kb/s | UKR [DUB (Line)]
Аудио #3: AC-3, 48.0 kHz, 2 ch, 192 kb/s | ENG [Original]
Субтитры: английские

Сэмпл | Рекламы нет !
General
Unique ID : 179814150569765070488587249650921784180 (0x8746F21970B09F0D9E42A1BB710A4374)
Complete name : Venom.2018.1080p.WEBRip.H.265.mkv
Format : Matroska
Format version : Version 4
File size : 1.63 GiB
Duration : 1 h 47 min
Overall bit rate : 2 179 kb/s
Encoded date : UTC 2018-12-04 19:46:24
Writing application : mkvmerge v8.3.0 ('Over the Horizon') 64bit
Writing library : libebml v1.3.1 + libmatroska v1.4.2

Video
ID : 1
Format : HEVC
Format/Info : High Efficiency Video Coding
Format profile : Main@L4@Main
Codec ID : V_MPEGH/ISO/HEVC
Duration : 1 h 47 min
Bit rate : 1 600 kb/s
Width : 1 920 pixels
Height : 800 pixels
Display aspect ratio : 2.40:1
Frame rate mode : Constant
Frame rate : 23.976 (24000/1001) FPS
Color space : YUV
Chroma subsampling : 4:2:0
Bit depth : 8 bits
Bits/(Pixel*Frame) : 0.043
Stream size : 1.20 GiB (73%)
Default : Yes
Forced : No
Color range : Limited
Color primaries : BT.709
Transfer characteristics : BT.709
Matrix coefficients : BT.709

Audio #1
ID : 2
Format : AC-3
Format/Info : Audio Coding 3
Commercial name : Dolby Digital
Codec ID : A_AC3
Duration : 1 h 47 min
Bit rate mode : Constant
Bit rate : 192 kb/s
Channel(s) : 2 channels
Channel layout : L R
Sampling rate : 48.0 kHz
Frame rate : 31.250 FPS (1536 SPF)
Bit depth : 16 bits
Compression mode : Lossy
Delay relative to video : -90 ms
Stream size : 147 MiB (9%)
Title : TS
Language : Russian
Service kind : Complete Main
Default : Yes
Forced : No

Audio #2
ID : 3
Format : AC-3
Format/Info : Audio Coding 3
Commercial name : Dolby Digital
Codec ID : A_AC3
Duration : 1 h 47 min
Bit rate mode : Constant
Bit rate : 192 kb/s
Channel(s) : 2 channels
Channel layout : L R
Sampling rate : 48.0 kHz
Frame rate : 31.250 FPS (1536 SPF)
Bit depth : 16 bits
Compression mode : Lossy
Delay relative to video : -90 ms
Stream size : 147 MiB (9%)
Title : LeDoyen
Language : Ukrainian
Service kind : Complete Main
Default : No
Forced : No

Audio #3
ID : 4
Format : AC-3
Format/Info : Audio Coding 3
Commercial name : Dolby Digital
Codec ID : A_AC3
Duration : 1 h 47 min
Bit rate mode : Constant
Bit rate : 192 kb/s
Channel(s) : 2 channels
Channel layout : L R
Sampling rate : 48.0 kHz
Frame rate : 31.250 FPS (1536 SPF)
Bit depth : 16 bits
Compression mode : Lossy
Delay relative to video : -90 ms
Stream size : 147 MiB (9%)
Language : English
Service kind : Complete Main
Default : No
Forced : No

Text
ID : 5
Format : UTF-8
Codec ID : S_TEXT/UTF8
Codec ID/Info : UTF-8 Plain Text
Duration : 1 h 34 min
Bit rate : 63 b/s
Count of elements : 1360
Stream size : 44.4 KiB (0%)
Language : English
Default : No
Forced : No
Источник http://BlaTor.org

Трекер:  [ 05-Дек-2018 05:10 ]

  

Скачать .torrent

Размер .torrent файла 16 KB


Размер: 1.63 GB
Хэш (hash) релиза: 2fc627e14d2485c6646af2a6f00a976064094797
Подписка на обновления:

Торренты, похожие на Веном Venom скачать торрент

Форум Название Автор Размер S L Добавлен
Зарубежные фильмы 2016-2018 (Новинки зарубежного кино) ·%· Веном / Venom (2018) BDRip 720p от HELLYWOOD | HDRezka Studio Galfimbul 44832375304.18 GB 0 0 1544469026

22:10

10-Дек-18

Зарубежные фильмы 2016-2018 (Новинки зарубежного кино) ·%· Веном / Venom (2018) BDRemux 1080p от селезень | HDRezka Studio Galfimbul 2868731304826.72 GB 0 0 1544416220

07:30

10-Дек-18

Зарубежные фильмы 2016-2018 (Новинки зарубежного кино) ·%· Веном / Venom (2018) HDRip-AVC от ExKinoRay | HDRezka Studio Galfimbul 15553788761.45 GB 0 0 1544349641

13:00

9-Дек-18

Зарубежные фильмы 2016-2018 (Новинки зарубежного кино) ·%· Веном / Venom (2018) UHD BDRemux 2160p от селезень | 4K | HDR | HDRezka Studio Galfimbul 4842270908445.1 GB 0 0 1544328612

07:10

9-Дек-18

Зарубежные фильмы 2016-2018 (Новинки зарубежного кино) ·%· Веном / Venom (2018) HDRip от MegaPeer | HDRezka Studio Galfimbul 780317868744 MB 0 0 1544309421

01:50

9-Дек-18

Зарубежные фильмы 2016-2018 (Новинки зарубежного кино) ·%· Веном / Venom (2018) HDRip от Scarabey | HDRezka Studio Galfimbul 15577720611.45 GB 0 0 1544303452

00:10

9-Дек-18

Зарубежные фильмы 2016-2018 (Новинки зарубежного кино) ·%· Веном / Venom (2018) HDRip от Scarabey | HDRezka Studio Galfimbul 782393344746 MB 0 0 1544287826

19:50

8-Дек-18

Зарубежные фильмы 2016-2018 (Новинки зарубежного кино) ·%· Веном / Venom (2018) HDRip-AVC | HDRezka Studio Galfimbul 781807232746 MB 0 0 1544255440

10:50

8-Дек-18

Зарубежные фильмы 2016-2018 (Новинки зарубежного кино) ·%· Веном / Venom (2018) HDRip от Kaztorrents | КПК | HDRezka Studio Galfimbul 531749519507 MB 0 0 1544225427

02:30

8-Дек-18

Зарубежные фильмы 2016-2018 (Новинки зарубежного кино) ·%· Веном / Venom (2018) BDRip 720p от селезень | HDRezka Studio Galfimbul 60611101385.64 GB 0 0 1544207452

21:30

7-Дек-18

Зарубежные фильмы 2016-2018 (Новинки зарубежного кино) ·%· Веном / Venom (2018) HDRip от MegaPeer | HDRezka Studio Galfimbul 15687677731.46 GB 0 0 1544189418

16:30

7-Дек-18

Зарубежные фильмы 2016-2018 (Новинки зарубежного кино) ·%· Веном / Venom (2018) BDRip 1080p от селезень | HDRezka Studio Galfimbul 1279336203511.91 GB 0 0 1544188240

16:10

7-Дек-18

Зарубежные фильмы 2016-2018 (Новинки зарубежного кино) ·%· Веном / Venom (2018) BDRip 1080p | D | Звук с TS Galfimbul 106428773609.91 GB 0 0 1544038808

22:40

5-Дек-18

Зарубежные фильмы 2016-2018 (Новинки зарубежного кино) ·%· Веном / Venom (2018) WEBRip 720p | D | Звук с TS Galfimbul 46846549654.36 GB 0 0 1543966228

02:30

5-Дек-18

Зарубежные фильмы 2016-2018 (Новинки зарубежного кино) ·%· Веном / Venom (2018) WEBRip | D | Звук с TS Galfimbul 17299660801.61 GB 0 0 1543948221

21:30

4-Дек-18

Зарубежные фильмы 2016-2018 (Новинки зарубежного кино) ·%· Веном / Venom (2018) CAMRip от Dalemake Galfimbul 15550300161.45 GB 0 0 1538837459

17:50

6-Окт-18

Зарубежные фильмы 2016-2018 (Новинки зарубежного кино) ·%· Веном / Venom (2018) CAMRip 720p Galfimbul 11043263801.03 GB 0 0 1538821229

13:20

6-Окт-18

Зарубежные фильмы 2016-2018 (Новинки зарубежного кино) ·%· Веном / Venom (2018) BDRip-HEVC 1080p от M@kSIMus | HDRezka Studio Galfimbul 62043321535.78 GB 0 0 1544665212

04:40

13-Дек-18

Мультсериалы ·· Человек-паук. Выпуск 5. Проект "ВЕНОМ" / Spider-Man 5: The Venom Saga (Лэрри Пэдличи,Джон Семпер) [1994, Мультфильм, DVD5] Galfimbul 44058542084.1 GB 0 0 1497909559

00:59

20-Июн-17

Еще никто не оставлял запись к записи скачать торрент Веном Venom . Будь первым!

!Обратная связь