Скачать через торрент Красавица для чудовища Mary Shelley Фильм бесплатно в хорошем качестве torrent

Скачивайте на UnionPeer.org фильмы через торрент без регистрации. Новинки кино в хорошем качестве через торрент. На UnionPeer.org можно скачать через торрент фильмы 2014 и 2015 годов. Самые новые фильмы.

Скачать торрент Красавица для чудовища Mary Shelley бесплатно через .torrent фильм мультфильм сериал

Статистика раздачи
Размер:  2.21 GB   |    Зарегистрирован:  4 дня   |    .torrent скачан:  13 раз   |   
Раздают:  1  
   
загрузка...
 
Автор Сообщение

Galfimbul

avatar Galfimbul


Красавица для чудовища / Mary Shelley
«Her Greatest Love Inspired Her Darkest Creation»


Год выпуска: 2017
Страна: Великобритания, Люксембург, США
Производство: BFI Film Fund, Gidden Media, HanWay Films
Жанр: Драма, мелодрама, биография
Режиссёр: Хайфа Аль-Мансур
В ролях: Элль Фэннинг, Бен Харди, Мэйси Уильямс, Бел Паули, Дуглас Бут, Джоанн Фроггатт, Том Старридж, Стивен Диллэйн, Хью О’Конор, Сиара Чартерис
Перевод: Профессиональный (многоголосый, закадровый) | [iTunes]
Субтитры: Нет
Реклама: Отсутствует

Описание: Что сподвигло нежную юную девушку к написанию «Франкенштейна…» - мрачного, энергетически необыкновенно сильного произведения, давшего начало жанру научной фантастики в мировой литературе? Биографическая картина повествует о наполненной драматическими событиями жизни знаменитой писательницы Мэри Шелли и ее страстной любви к одному из величайших английских поэтов.


Качество: BDRip-AVC
Продолжительность: 02:00:41

Формат: MKV
Видео кодек: MPEG-4 AVC
Аудио кодек: AC3
Видео: 1024x428 (2.40:1), 24,000 fps, x264 ~1 792 kbps avg, 0.170 bit/pixel
Аудио: 48 kHz, AC3 Dolby Digital, 3/2 (L,C,R,l,r) + LFE ch, ~384.00 kbps avg | RUS (iTunes)
Аудио: 48 kHz, AC3 Dolby Digital, 3/2 (L,C,R,l,r) + LFE ch, ~448.00 kbps avg | ENG
Дата премьеры (мир): 9 сентября 2017
Дата премьеры (РФ): 10 мая 2018, «Capella Film»
Общее
Уникальный идентификатор : 197349383808169616018989129580957719475 (0x94781BD8E43C4DEFFC259361BCD8DBB3)
Полное имя : F:OlLanDGroupMary.Shelley.2017.BDRip(AVC).OlLanDGroup.mkv
Формат : Matroska
Версия формата : Version 4 / Version 2
Размер файла : 2,21 Гбайт
Продолжительность : 2 ч. 0 м.
Общий поток : 2622 Кбит/сек
Название фильма : Mary Shelley 2017 #TorpedoUK#
Дата кодирования : UTC 2018-12-04 07:53:42
Программа кодирования : mkvmerge v25.0.0 ('Prog Noir') 64-bit
Библиотека кодирования : libebml v1.3.6 + libmatroska v1.4.9

Видео
Идентификатор : 1
Формат : AVC
Формат/Информация : Advanced Video Codec
Профиль формата : High@L4.1
Параметр CABAC формата : Да
Параметр ReFrames формата : 10 кадров
Идентификатор кодека : V_MPEG4/ISO/AVC
Продолжительность : 2 ч. 0 м.
Битрейт : 1792 Кбит/сек
Ширина : 1024 пикселя
Высота : 428 пикселей
Соотношение сторон : 2,40:1
Режим частоты кадров : Постоянный
Частота кадров : 24,000 кадра/сек
Цветовое пространство : YUV
Субдискретизация насыщенности : 4:2:0
Битовая глубина : 8 бит
Тип развёртки : Прогрессивная
Бит/(Пиксели*Кадры) : 0.170
Размер потока : 1,51 Гбайт (68%)
Библиотека кодирования : x264 core 146 r2538 121396c
Настройки программы : cabac=1 / ref=10 / deblock=1:-3:-3 / analyse=0x3:0x113 / me=umh / subme=11 / psy=1 / psy_rd=0.98:0.04 / mixed_ref=1 / me_range=48 / chroma_me=1 / trellis=2 / 8x8dct=1 / cqm=0 / deadzone=21,11 / fast_pskip=1 / chroma_qp_offset=-3 / threads=6 / lookahead_threads=1 / sliced_threads=0 / nr=0 / decimate=1 / interlaced=0 / bluray_compat=0 / constrained_intra=0 / bframes=11 / b_pyramid=2 / b_adapt=2 / b_bias=0 / direct=3 / weightb=1 / open_gop=0 / weightp=2 / keyint=240 / keyint_min=24 / scenecut=40 / intra_refresh=0 / rc_lookahead=40 / rc=2pass / mbtree=0 / bitrate=1792 / ratetol=1.0 / qcomp=0.60 / qpmin=0 / qpmax=69 / qpstep=4 / cplxblur=20.0 / qblur=0.5 / vbv_maxrate=50000 / vbv_bufsize=62500 / nal_hrd=none / filler=0 / ip_ratio=1.40 / pb_ratio=1.30 / aq=1:1.00
Язык : English
Default : Да
Forced : Нет

Аудио #1
Идентификатор : 2
Формат : AC-3
Формат/Информация : Audio Coding 3
Расширение режима : CM (complete main)
Параметр Endianness формата : Big
Идентификатор кодека : A_AC3
Продолжительность : 2 ч. 0 м.
Вид битрейта : Постоянный
Битрейт : 384 Кбит/сек
Каналы : 6 каналов
Расположение каналов : Front: L C R, Side: L R, LFE
Частота : 48,0 КГц
Частота кадров : 31,250 кадров/сек (1536 spf)
Битовая глубина : 16 бит
Метод сжатия : С потерями
Размер потока : 331 Мбайт (15%)
Заголовок : MVO [iTunes]
Язык : Russian
Default : Да
Forced : Нет

Аудио #2
Идентификатор : 3
Формат : AC-3
Формат/Информация : Audio Coding 3
Расширение режима : CM (complete main)
Параметр Endianness формата : Big
Идентификатор кодека : A_AC3
Продолжительность : 2 ч. 0 м.
Вид битрейта : Постоянный
Битрейт : 448 Кбит/сек
Каналы : 6 каналов
Расположение каналов : Front: L C R, Side: L R, LFE
Частота : 48,0 КГц
Частота кадров : 31,250 кадров/сек (1536 spf)
Битовая глубина : 16 бит
Метод сжатия : С потерями
Размер потока : 387 Мбайт (17%)
Заголовок : [Original]
Язык : English
Default : Нет
Forced : Нет

Текст #1
Идентификатор : 4
Формат : UTF-8
Идентификатор кодека : S_TEXT/UTF8
Идентификатор кодека/Информация : UTF-8 Plain Text
Продолжительность : 1 ч. 51 м.
Битрейт : 53 бит/сек
Count of elements : 1331
Размер потока : 43,4 Кбайт (0%)
Заголовок : Full
Язык : English
Default : Нет
Forced : Нет

Текст #2
Идентификатор : 5
Формат : UTF-8
Идентификатор кодека : S_TEXT/UTF8
Идентификатор кодека/Информация : UTF-8 Plain Text
Продолжительность : 1 ч. 52 м.
Битрейт : 59 бит/сек
Count of elements : 1351
Размер потока : 48,9 Кбайт (0%)
Заголовок : SDH
Язык : English
Default : Нет
Forced : Нет

Меню
00:00:00.000 : :Глава 01
00:16:29.958 : :Глава 02
00:30:50.708 : :Глава 03
00:43:37.583 : :Глава 04
00:57:11.208 : :Глава 05
01:11:40.042 : :Глава 06
01:24:27.042 : :Глава 07
01:39:28.000 : :Глава 08
Источник http://BlaTor.org

Трекер:  [ 05-Дек-2018 16:00 ]

  

Скачать .torrent

Размер .torrent файла 11 KB


Размер: 2.21 GB
Хэш (hash) релиза: 1f8f3feac11b427ca0849e2db2cd0a3cb60090cf
Подписка на обновления:

Торренты, похожие на Красавица для чудовища Mary Shelley скачать торрент

Форум Название Автор Размер S L Добавлен
Зарубежные фильмы 2016-2018 (Новинки зарубежного кино) ·%· Красавица для чудовища / Mary Shelley (2017) BDRip от MegaPeer | iTunes Galfimbul 22845358082.13 GB 0 0 1544052647

02:30

6-Дек-18

Зарубежные фильмы 2016-2018 (Новинки зарубежного кино) ·%· Красавица для чудовища / Mary Shelley (2017) BDRip от ExKinoRay | iTunes Galfimbul 22861279502.13 GB 0 0 1543945212

20:40

4-Дек-18

Зарубежные фильмы 2016-2018 (Новинки зарубежного кино) ·%· Красавица для чудовища / Mary Shelley (2017) BDRip от MegaPeer | iTunes Galfimbul 782623280746 MB 0 0 1543876214

01:30

4-Дек-18

Зарубежные фильмы 2016-2018 (Новинки зарубежного кино) ·%· Красавица для чудовища / Mary Shelley (2017) BDRemux 1080p от селезень | iTunes Galfimbul 1691335459515.75 GB 0 0 1543840843

15:40

3-Дек-18

Зарубежные фильмы 2016-2018 (Новинки зарубежного кино) ·%· Красавица для чудовища / Mary Shelley (2017) BDRip 1080p | iTunes Galfimbul 87719590558.17 GB 0 0 1537372869

19:01

19-Сен-18

Зарубежные фильмы 2016-2018 (Новинки зарубежного кино) ·· Красавица для чудовища / Mary Shelley (Хайфа Аль-Мансур) [2017 г., Драма, мелодрама, биография, WEB-DL 720p] iTunes Galfimbul 40483149923.77 GB 0 0 1527868832

19:00

1-Июн-18

Зарубежные фильмы 2016-2018 (Новинки зарубежного кино) ·· Красавица для чудовища / Mary Shelley (Хайфа Аль-Мансур) [2017 г., Драма, мелодрама, биография, WEB-DLRip] iTunes Galfimbul 15679344641.46 GB 0 0 1527842417

11:40

1-Июн-18

Зарубежные фильмы 2016-2018 (Новинки зарубежного кино) ·· Красавица для чудовища / Mary Shelley (Хайфа Аль-Мансур) [2017 г., Драма, мелодрама, биография, WEB-DL 720p] MVO | iTunes Galfimbul 40483149923.77 GB 0 0 1527837326

10:15

1-Июн-18

Зарубежные фильмы 2016-2018 (Новинки зарубежного кино) ·· Красавица для чудовища / Mary Shelley (Хайфа Аль-Мансур) [2017 г., Драма, мелодрама, биография, WEB-DLRip] MVO | iTunes Galfimbul 21866127362.04 GB 0 0 1527837320

10:15

1-Июн-18

Зарубежные фильмы 2016-2018 (Новинки зарубежного кино) ·· Красавица для чудовища / Mary Shelley (Хайфа Аль-Мансур) [2017 г., Драма, мелодрама, биография, WEB-DLRip] MVO | iTunes Galfimbul 14678487041.37 GB 0 0 1527837319

10:15

1-Июн-18

Зарубежные фильмы 2016-2018 (Новинки зарубежного кино) ·· Красавица для чудовища / Mary Shelley (Хайфа Аль-Мансур) [2017, Драма, мелодрама, биография, WEB-DL 1080p] iTunes Galfimbul 44922379924.18 GB 0 0 1527804627

01:10

1-Июн-18

Еще никто не оставлял запись к записи скачать торрент Красавица для чудовища Mary Shelley . Будь первым!

!Обратная связь