Скачать через торрент В другой раз Another Time Фильм бесплатно в хорошем качестве torrent

Скачивайте на UnionPeer.org фильмы через торрент без регистрации. Новинки кино в хорошем качестве через торрент. На UnionPeer.org можно скачать через торрент фильмы 2014 и 2015 годов. Самые новые фильмы.

Скачать торрент В другой раз Another Time бесплатно через .torrent фильм мультфильм сериал

Статистика раздачи
Размер:  6.51 GB   |    Зарегистрирован:  5 дней   |    .torrent скачан:  61 раз   |   
Раздают:  1  
   
загрузка...
 
Автор Сообщение

Galfimbul

avatar Galfimbul


В другой раз / Another Time
«Reinvent the wold of love»


Год выпуска: 2018
Страна: США
Производство: AfterBurner Entertainment, Angry Jimmy Films
Жанр: Фантастика, мелодрама, комедия, приключения
Режиссёр: Томас Хеннесси
В ролях: Джастин Хартли, Ариэль Кеббел, Джеймс Кайсон Ли, Кришелл Стаус, Алан Петрушевски, Марк Вэлли, Джейк МакЛафлин, Такер Смоллвуд, Этан Кон, Карл Т. Райт
Перевод: Профессиональный многоголосый | [HDRezka Studio]
Субтитры: Английские (полные)
Реклама: Отсутствует

Описание: Эрик добрый и умный парень, который уделяет большую часть своего времени работе и самореализации. У него, казалось бы, совершенная жизнь, о чем ему очень часто напоминают окружающие. Но все внезапно меняется, когда Эрик встречает девушку по имени Джулия. Вместе им суждено провести неделю совместной работы, во время которой парень понимает, что по уши влюблен. Как только он собирался сделать первый шаг, Джулия признается ему, что у нее есть Адам, который, как на зло, замечательный парень. Казалось бы, шансов совсем нет, но неожиданно у Эрика появляется возможность отправиться в прошлое и все изменить, однако это далеко не самая простая задача.


Качество: BDRip 1080p | BDRemux | Another.Time.2018.1080p.BluRay.REMUX.AVC.DTS-HD.MA.5.1-FGT
Продолжительность: 01:29:22

Формат: MKV
Видео кодек: MPEG-4 AVC
Аудио кодек: AC3
Видео: 1920x1040 (1.85:1), 23,976 fps, x264 ~8 729 Kbps avg, 0.182 bit/pixel
Аудио #1: 48 kHz, AC3 Dolby Digital, 2 (L,R) ch, ~192.00 kbps avg | RUS (HDRezka Studio)
Аудио #2: 48 kHz, DTS Digital Theater System, 3/2 (L,C,R,l,r) + LFE ch, ~1509.00 kbps avg | ENG
Дата премьеры (мир): 28 апреля 2018
Дата премьеры (РФ):
Цифровой релиз:
Общее
Уникальный идентификатор : 278583133476585268579487404637250400176 (0xD19528EDA887AC35FB98258598DC2FB0)
Полное имя : F:OlLanDGroupAnother.Time.2018.x264.BDRip.(1080p).OlLanDGroup.mkv
Формат : Matroska
Версия формата : Version 4 / Version 2
Размер файла : 6,51 Гбайт
Продолжительность : 1 ч. 29 м.
Общий поток : 10,4 Мбит/сек
Название фильма : В другой раз.2018.Rip by: ollan
Дата кодирования : UTC 2018-12-05 11:02:35
Программа кодирования : mkvmerge v25.0.0 ('Prog Noir') 64-bit
Библиотека кодирования : libebml v1.3.6 + libmatroska v1.4.9
Обложка : Yes
Attachments : Cover - Another.Time.png

Видео
Идентификатор : 1
Формат : AVC
Формат/Информация : Advanced Video Codec
Профиль формата : High@L4.1
Параметр CABAC формата : Да
Параметр ReFrames формата : 4 кадра
Идентификатор кодека : V_MPEG4/ISO/AVC
Продолжительность : 1 ч. 29 м.
Битрейт : 8729 Кбит/сек
Ширина : 1920 пикселей
Высота : 1040 пикселей
Соотношение сторон : 1,85:1
Режим частоты кадров : Постоянный
Частота кадров : 23,976 (24000/1001) кадра/сек
Цветовое пространство : YUV
Субдискретизация насыщенности : 4:2:0
Битовая глубина : 8 бит
Тип развёртки : Прогрессивная
Бит/(Пиксели*Кадры) : 0.182
Размер потока : 5,44 Гбайт (84%)
Библиотека кодирования : x264 core 146 r2538 121396c
Настройки программы : cabac=1 / ref=4 / deblock=1:-2:-3 / analyse=0x3:0x133 / me=umh / subme=11 / psy=1 / psy_rd=0.95:0.05 / mixed_ref=1 / me_range=64 / chroma_me=1 / trellis=2 / 8x8dct=1 / cqm=0 / deadzone=21,11 / fast_pskip=0 / chroma_qp_offset=-3 / threads=12 / lookahead_threads=3 / sliced_threads=0 / nr=0 / decimate=0 / interlaced=0 / bluray_compat=0 / constrained_intra=0 / bframes=10 / b_pyramid=2 / b_adapt=2 / b_bias=0 / direct=3 / weightb=1 / open_gop=0 / weightp=2 / keyint=240 / keyint_min=23 / scenecut=40 / intra_refresh=0 / rc_lookahead=40 / rc=2pass / mbtree=0 / bitrate=8729 / ratetol=1.0 / qcomp=0.60 / qpmin=0 / qpmax=69 / qpstep=4 / cplxblur=20.0 / qblur=0.5 / vbv_maxrate=50000 / vbv_bufsize=62500 / nal_hrd=none / filler=0 / ip_ratio=1.40 / pb_ratio=1.30 / aq=1:1.00
Язык : English
Default : Да
Forced : Нет

Аудио #1
Идентификатор : 2
Формат : AC-3
Формат/Информация : Audio Coding 3
Расширение режима : CM (complete main)
Параметр Endianness формата : Big
Идентификатор кодека : A_AC3
Продолжительность : 1 ч. 29 м.
Вид битрейта : Постоянный
Битрейт : 192 Кбит/сек
Каналы : 2 канала
Расположение каналов : Front: L R
Частота : 48,0 КГц
Частота кадров : 31,250 кадров/сек (1536 spf)
Битовая глубина : 16 бит
Метод сжатия : С потерями
Размер потока : 123 Мбайт (2%)
Заголовок : MVO [HDRezka Studio]
Язык : Russian
Default : Да
Forced : Нет

Аудио #2
Идентификатор : 3
Формат : DTS
Формат/Информация : Digital Theater Systems
Режим : 16
Параметр Endianness формата : Big
Идентификатор кодека : A_DTS
Продолжительность : 1 ч. 29 м.
Вид битрейта : Постоянный
Битрейт : 1509 Кбит/сек
Каналы : 6 каналов
Расположение каналов : Front: L C R, Side: L R, LFE
Частота : 48,0 КГц
Частота кадров : 93,750 кадра/сек (512 spf)
Битовая глубина : 24 бит
Метод сжатия : С потерями
Размер потока : 965 Мбайт (14%)
Заголовок : [Original]
Язык : English
Default : Нет
Forced : Нет

Текст
Идентификатор : 4
Формат : UTF-8
Идентификатор кодека : S_TEXT/UTF8
Идентификатор кодека/Информация : UTF-8 Plain Text
Продолжительность : 1 ч. 24 м.
Битрейт : 90 бит/сек
Count of elements : 1669
Размер потока : 56,1 Кбайт (0%)
Заголовок : Full
Язык : English
Default : Нет
Forced : Нет

Меню
00:00:00.000 : en:Chapter 01
00:10:53.778 : en:Chapter 02
00:21:17.359 : en:Chapter 03
00:28:34.587 : en:Chapter 04
00:37:11.187 : en:Chapter 05
00:51:04.519 : en:Chapter 06
01:00:15.361 : en:Chapter 07
01:09:30.124 : en:Chapter 08
01:22:06.546 : en:Chapter 09
01:29:20.563 : en:Chapter 10
Источник http://BlaTor.org

Трекер:  [ 07-Дек-2018 07:30 ]

  

Скачать .torrent

Размер .torrent файла 33 KB


Размер: 6.51 GB
Хэш (hash) релиза: 8c270d168d5f6ffc601145ca104f517d88d28503
Подписка на обновления:

Торренты, похожие на В другой раз Another Time скачать торрент

Форум Название Автор Размер S L Добавлен
Зарубежные фильмы 2016-2018 (Новинки зарубежного кино) ·%· В другой раз / Another Time (2018) BDRip-AVC от OlLanDGroup | HDRezka Studio Galfimbul 19688094991.83 GB 0 0 1544041225

23:20

5-Дек-18

Еще никто не оставлял запись к записи скачать торрент В другой раз Another Time . Будь первым!

!Обратная связь